:415 views

She s Gonna Squirt 4 2014 Brazzers XXX DVDRip mp4

Download

Description

————————————————–
Screnshots:

CAST
Blake Rose, Bonnie Rotten, Casey Calvert, Lindsey Olsen, Maddy O`Reilly, Riley Reid, Veronica Rodriguez

Shes Gonna Squirt 4: BThe Best Squirting Pussy From Brazzers Top Pornstars!/bbrbr \’Buttfucking The Bully\’ – Danny figures out what Bonnie really wants is to gag on his manhood. He gets a chance to turn the tables on the mean slut when he bends Bonnie over the teacher\’s desk and gives her the best ass fucking of her life!brbr \’Going Rough On The Muff\’ – Riley reid calls over Keiran to join in all the naughty fun banging her big-booty fuck buddy Maddy O\’Reilly on the sofa. Face-sitting, finger-fucking, cock gagging captured in all it\’s HD porn glory!Brbr \’Sneaking Into The Squirters\’ Yard\’ – Casey Calvert caught this sneaky soldier spying on her sweet body, and invited him to do a full – frontal attack on her sweet pussy and ass. Check out this perky teen squirters over and over on Danny\’s massive cannon!Brbr \’Wanted: Secretary, Squirting Required\’ – Lindsey Olsen decided she\’ll be hired as Timo\’s secretary no matter what. She\’s got a secret plan: before he can even look at her resume, she\’s got her pussy in his face, and Lindsey\’s not leaving until she\’s got his cum and the job!brbr \’I Hate Johnny Sins\’ – The new hack Woody\’s created to add infinite dislikes to any video is sure to help. When Brazzers sees how many dislikes her porn star fuckbuddy Johnny Sin\’s profile gets, Veronica will dumph his ass for sure, right?

————————————————–
Media Info:

Format                                   : MPEG-4
Codec ID                                 : M4V
File size                                : 3.16 GiB
Duration                                 : 3h 54mn
Overall bit rate mode                    : Variable
Overall bit rate                         : 1 932 Kbps
Encoded date                             : UTC 2014-09-03 15:13:54
Tagged date                              : UTC 2014-09-03 15:13:54

Video
ID                                       : 1
Format                                   : AVC
Format/Info                              : Advanced Video Codec
Format profile                           : Main@L3.1
Format settings, CABAC                   : No
Format settings, ReFrames                : 2 frames
Codec ID                                 : avc1
Codec ID/Info                            : Advanced Video Coding
Duration                                 : 3h 54mn
Source duration                          : 3h 54mn
Bit rate mode                            : Variable
Bit rate                                 : 1 799 Kbps
Maximum bit rate                         : 2 700 Kbps
Width                                    : 720 pixels
Height                                   : 404 pixels
Display aspect ratio                     : 16:9
Frame rate mode                          : Constant
Frame rate                               : 29.970 fps
Color space                              : YUV
Chroma subsampling                       : 4:2:0
Bit depth                                : 8 bits
Scan type                                : Progressive
Bits/(Pixel*Frame)                       : 0.206
Stream size                              : 2.94 GiB (93%)
Source stream size                       : 2.94 GiB
Encoded date                             : UTC 2014-09-03 15:13:54
Tagged date                              : UTC 2014-09-03 15:13:54

Audio
ID                                       : 2
Format                                   : AAC
Format/Info                              : Advanced Audio Codec
Format profile                           : LC
Codec ID                                 : 40
Duration                                 : 3h 54mn
Bit rate mode                            : Variable
Bit rate                                 : 128 Kbps
Maximum bit rate                         : 131 Kbps
Channel(s)                               : 2 channels
Channel positions                        : Front: L R
Sampling rate                            : 48.0 KHz
Compression mode                         : Lossy
Stream size                              : 210 MiB (6%)
Encoded date                             : UTC 2014-09-03 15:13:56
Tagged date                              : UTC 2014-09-03 15:13:56

 - Porn Video   - , , , ,

Daily Ranking – Top 5 in This Category

TeenSexMania – Grace C
TeenSexMania - Grace C

:39 views (Daily)
Porn Video

MomXXX – Ryta – Teaching A Lesson
MomXXX - Ryta - Teaching A Lesson

:32 views (Daily)
Porn Video

BLACKED 15.04.11 Ava Dalush XXX 1080p MP4-KTR
BLACKED 15.04.11 Ava Dalush XXX 1080p MP4-KTR

:9 views (Daily)
Porn Video

BoundGangbangs – 5 Hour Epic Compilation
BoundGangbangs - 5 Hour Epic Compilation

:6 views (Daily)
Porn Video

Tits Gone Wild
Tits Gone Wild

:5 views (Daily)
Porn Video