:24 views

GF Revenge 13 2015 DVDRip
NameGF Revenge 13
Size2.19 GB
Created on2015-02-21 06:01:13
Hasheea416d9ad676923185564f199affba180e2d521
FilesGF Revenge 13/xcite-gf.revenge.13.mp4 (2.19 GB)

Description

GF Revenge 13 2015 DVDRip

————————————————–
Screnshots:

————————————————–
Media Info:

Video
ID                             : 1
Format                         : AVC
Format/Info                    : Advanced Video Codec
Format profile                 : High@L3.1
Format settings, CABAC         : Yes
Format settings, ReFrames      : 5 frames
Codec ID                       : avc1
Codec ID/Info                  : Advanced Video Coding
Duration                       : 3h 11mn
Bit rate                       : 1 389 Kbps
Maximum bit rate               : 5 089 Kbps
Width                          : 720 pixels
Height                         : 400 pixels
Display aspect ratio           : 16:9
Frame rate mode                : Constant
Frame rate                     : 29.970 fps
Color space                    : YUV
Chroma subsampling             : 4:2:0
Bit depth                      : 8 bits
Scan type                      : Progressive
Bits/(Pixel*Frame)             : 0.161
Stream size                    : 1.86 GiB (91%)
Writing library                : x264 core 142 r2431 ac76440
Encoding settings              : cabac=1 / ref=5 / deblock=1:0:0 / analyse=0x3:0x113 / me=umh / subme=8 / psy=1 / psy_rd=1.00:0.00 / mixed_ref=1 / me_range=16 / chroma_me=1 / trellis=1 / 8x8dct=1 / cqm=0 / deadzone=21,11 / fast_pskip=0 / chroma_qp_offset=-2 / threads=12 / lookahead_threads=2 / sliced_threads=0 / nr=0 / decimate=1 / interlaced=0 / bluray_compat=0 / constrained_intra=0 / bframes=3 / b_pyramid=2 / b_adapt=2 / b_bias=0 / direct=3 / weightb=1 / open_gop=0 / weightp=2 / keyint=300 / keyint_min=29 / scenecut=40 / intra_refresh=0 / rc_lookahead=50 / rc=crf / mbtree=1 / crf=19.0 / qcomp=0.60 / qpmin=0 / qpmax=69 / qpstep=4 / ip_ratio=1.40 / aq=1:1.00
Encoded date                   : UTC 2015-02-19 20:24:19
Tagged date                    : UTC 2015-02-20 12:46:14

Audio
ID                             : 2
Format                         : AAC
Format/Info                    : Advanced Audio Codec
Format profile                 : LC
Codec ID                       : 40
Duration                       : 3h 11mn
Bit rate mode                  : Variable
Bit rate                       : 127 Kbps
Maximum bit rate               : 147 Kbps
Channel(s)                     : 2 channels
Channel positions              : Front: L R
Sampling rate                  : 48.0 KHz
Compression mode               : Lossy
Stream size                    : 174 MiB (8%)
Encoded date                   : UTC 2015-02-19 20:27:27
Tagged date                    : UTC 2015-02-20 12:46:14

 - Porn Video   - ,

Daily Ranking – Top 5 in This Category

MomXXX – Ryta – Teaching A Lesson
MomXXX - Ryta - Teaching A Lesson

:38 views (Daily)
Porn Video

TeenSexMania – Grace C
TeenSexMania - Grace C

:32 views (Daily)
Porn Video

LetsTryAnal – Ryta – Czech Chicks Anal Sextape
LetsTryAnal - Ryta - Czech Chicks Anal Sextape

:7 views (Daily)
Porn Video

Pussy Acrobats 2 – 2015
Pussy Acrobats 2 - 2015

:7 views (Daily)
Porn Video

It’s A Daddy Thing! 6
It's A Daddy Thing! 6

:6 views (Daily)
Porn Video